Регистрация ·  Логин: Пароль: Запомнить   · Забыли пароль?



Торрент трекер atorrent.site.
Скачать торрент Обещание / Söz / Сезон 1-2 / Серии: 1-43 (50) (Ягыз Альп Акалын) [2017-2018, Турция, Военный, Мелодрама, WEBRip (720p)] VO Nagooev i Deeva, Kotova, размером 36.97 ГБ



Ответить на тему
Статистика раздачи
Размер: 36.97 ГБ | Зарегистрирован: 26 янв 2019, 15:42 | .torrent скачан: 0 раз(а)
Сидеров: [ 5  | 0 байт/сек ]   Личеров: [ 1  | 0 байт/сек ]   DHT: [ 5 / 1 ]
Автор Сообщение

Супермодератор
Аватара пользователя

Стаж: 5 лет 8 месяцев
Сообщения: 53547
Россия

Сообщение 26 янв 2019, 15:42 

[Цитировать]

Обещание / Söz


Год выпуска: 2017-2018
Страна: Турция
Производство: TIMS&B Production
Жанр: Военный, Мелодрама
Серии (количество): 1-43 (50)
Продолжительность: ~ 02:08:00 / каждая серия
Перевод: любительский двухголосый закадровый (Бислан Нагоев и Фаинна Деева, Ирина Котова)
Субтитры: отсутствуют
Режиссёр: Ягыз Альп Акалын
В ролях: Толга Сарыташ, Айбюке Пусат, Аватар Атакан

Описание: Турецкий сериал Обещание расскажет зрителям историю нескольких храбрых мужчин. Все началось фактически сразу после того события, с которым столкнулась целая страна. Вся Турция буквально стояла на ушах. В связи с этим высокопоставленными военными было принято решение о создании небольшого отряда специального назначение. В этот отряд входит всего на всего 12 бойцов. Но, невзирая на это, они еще не раз покажут, что даже такая небольшая команда способна на многое. Главная задача этих храбрецов – поиск и уничтожение верхушек террористических группировок. Ведь только так можно раз и навсегда покончить с преступной жизнью в стране. И вот дюжина мужественных бойцов отправляются в свой нелегкий путь. Не исключено, что для некоторых из них он окажется посмертным. Тем не менее, они даже не задумываются об этом. Ведь у них есть четкая задача, которую необходимо выполнить любой ценой. Сейчас только от них зависит будущее миллионов. Как бы это банально не прозвучало, но если еще совсем недавно эти 12 бойцов были друг для друга лишь коллегами, то уже сейчас они нечто большее. По сути, они стали родными братьями, каждый из которых готов принести себя в жертву ради своего брата. Впереди главных персонажей этой истории ожидает масса интересного и опасного. А у вас уже прямо сейчас есть уникальная возможность – присоединиться к ним. Начните смотреть Обещание и вы сможете прожить частицу жизни этих храбрецов.
Ссылка на предыдущие и альтернативные раздачи: http://rutracker.org/forum/tracker.php?nm=%D0%9E%D0%B1%D0%B5%D1%89%D0%B0%D0%BD%D0%B8%D0%B5
Качество: WEBRip (720p)
Формат: MP4
Видео кодек: H.264
Аудио кодек: AAC
Видео: MPEG4, Video (H264), 1280x720, 25fps, 1 446 Kbps
Аудио: AAC, 48000Hz, stereo, 129kbps
General
Complete name : I:\Obeschanie.2017.L2.WEBRip720p\Obeschanie.s01.e01.2017.L2.WEBRip720p.MP4
Format : MPEG-4
Format profile : Base Media
Codec ID : isom
File size : 1.42 GiB
Duration : 2h 8mn
Overall bit rate : 1 581 Kbps
Writing application : Lavf56.40.101
Video
ID : 1
Format : AVC
Format/Info : Advanced Video Codec
Format profile : [email protected]
Format settings, CABAC : Yes
Format settings, ReFrames : 3 frames
Codec ID : avc1
Codec ID/Info : Advanced Video Coding
Duration : 2h 8mn
Bit rate : 1 446 Kbps
Width : 1 280 pixels
Height : 720 pixels
Display aspect ratio : 16:9
Frame rate mode : Constant
Frame rate : 25.000 fps
Color space : YUV
Chroma subsampling : 4:2:0
Bit depth : 8 bits
Scan type : Progressive
Bits/(Pixel*Frame) : 0.063
Stream size : 1.30 GiB (91%)
Writing library : x264 core 148
Encoding settings : cabac=1 / ref=3 / deblock=1:0:0 / analyse=0x3:0x113 / me=hex / subme=7 / psy=1 / psy_rd=1.00:0.00 / mixed_ref=1 / me_range=16 / chroma_me=0 / trellis=1 / 8x8dct=1 / cqm=0 / deadzone=21,11 / fast_pskip=1 / chroma_qp_offset=-2 / threads=22 / lookahead_threads=3 / sliced_threads=0 / nr=0 / decimate=1 / interlaced=0 / bluray_compat=0 / constrained_intra=0 / bframes=3 / b_pyramid=1 / b_adapt=1 / b_bias=0 / direct=1 / weightb=1 / open_gop=0 / weightp=2 / keyint=250 / keyint_min=25 / scenecut=40 / intra_refresh=0 / rc_lookahead=40 / rc=2pass / mbtree=1 / bitrate=1446 / ratetol=1.0 / qcomp=0.60 / qpmin=0 / qpmax=69 / qpstep=4 / cplxblur=20.0 / qblur=0.5 / ip_ratio=1.41 / aq=1:1.00
Audio
ID : 2
Format : AAC
Format/Info : Advanced Audio Codec
Format profile : LC
Codec ID : 40
Duration : 2h 8mn
Duration_LastFrame : -5ms
Bit rate mode : Constant
Bit rate : 132 Kbps
Channel(s) : 2 channels
Channel positions : Front: L R
Sampling rate : 48.0 KHz
Compression mode : Lossy
Delay relative to video : 80ms
Stream size : 119 MiB (8%)






Скачать .torrent 36.97 ГБ


Download
Для скачивания .torrent файлов необходима регистрация
Сайт не распространяет и не хранит электронные версии произведений, а лишь предоставляет доступ к создаваемому пользователями каталогу ссылок на торрент-файлы, которые содержат только списки хеш-сумм

Страница 1 из 1

Ответить на тему

   Похожие торренты   Торрент