Регистрация ·  Логин: Пароль: Запомнить   · Забыли пароль?



Торрент трекер atorrent.site.
Скачать торрент Перед рассветом [Боевик, драма, 1989] HDTVRip 720p, размером 2.61 ГБ



Ответить на тему
Статистика раздачи
Размер: 2.61 ГБ | Зарегистрирован: 05 апр 2019, 17:16 | .torrent скачан: 10 раз(а)
Сидеров: [ 8  | 0 байт/сек ]   Личеров: [ 0  | 0 байт/сек ]   DHT: [ 8 / 0 ]
Автор Сообщение

Модератор видео
Аватара пользователя

Стаж: 7 месяцев 20 дней
Сообщения: 507
Россия

Сообщение 05 апр 2019, 17:16 

[Цитировать]



Информация о фильме
Название: Перед рассветом
Год выхода: 1989
Жанр: Боевик, драма
Режиссер: Ярополк Лапшин
В ролях: Валерий Рыжаков, Евгений Миронов, Александр Панкратов-Чёрный, Раиса Рязанова, Константин Степанков, Вера Альховская, Николай Бадьев, Олег Корчиков, Вячеслав Кириличев, Игорь Головин

О фильме: Жаркое лето 1941 года. Небольшая станция в прифронтовой полосе. В один из вагонов погружают группу уголовников. Не успевает поезд проехать и несколько километров, как подвергается налету авиации и атаке десанта. После боя из всего состава в живых остаются только трое: молодой лейтенант НКВД, «вор в законе» и репрессированный партийный работник. Они бегут в лес, подальше от разбитого поезда и преследующих их немцев. В такой ситуации заключенные, казалось, могли бы считать себя свободными, но лейтенант думает иначе и намерен доставить их к месту назначения. Дальнейшая история в фильме повествует о том, что, кем бы они ни были — уголовником, репрессированным или офицером-чекистом, — их объединило одно — ненависть к захватчикам.

Страна: СССР
Студия: Свердловская киностудия
Продолжительность: 01:19:36

Файл
Кодек: H.264
Качество: HDTVRip 720p
Видео: H.264 AVC 4500 kbps, 25 fps, 984x720
Звук: MP2; 48.0 KHz; 2ch; 192 Kbps




Общее
Уникальный идентификатор : 243471979513270687104487212957558923414 (0xB72AFF627A0573A9A4E3EBAC67446096)
Полное имя : Перед рассветом 1989 720p.mkv
Формат : Matroska
Версия формата : Version 2
Размер файла : 2,61 Гбайт
Продолжительность : 1 ч. 19 м.
Общий поток : 4693 Кбит/сек
Дата кодирования : UTC 2016-06-10 13:21:40
Программа кодирования : mkvmerge v5.8.0 ('No Sleep / Pillow') built on Sep 2 2012 15:37:04
Библиотека кодирования : libebml v1.2.3 + libmatroska v1.3.0

Видео
Идентификатор : 1
Формат : AVC
Формат/Информация : Advanced Video Codec
Профиль формата : [email protected]
Параметр CABAC формата : Да
Параметр ReFrames формата : 4 кадра
Идентификатор кодека : V_MPEG4/ISO/AVC
Продолжительность : 1 ч. 19 м.
Битрейт : 4500 Кбит/сек
Ширина : 984 пикселя
Высота : 720 пикселей
Соотношение сторон : 4:3
Режим частоты кадров : Постоянный
Частота кадров : 25,000 кадров/сек
Цветовое пространство : YUV
Субдискретизация насыщенности : 4:2:0
Битовая глубина : 8 бит
Тип развёртки : Прогрессивная
Бит/(Пиксели*Кадры) : 0.254
Размер потока : 2,45 Гбайт (94%)
Библиотека кодирования : x264 core 125 r2208 d9d2288
Настройки программы : cabac=1 / ref=4 / deblock=1:-1:-1 / analyse=0x3:0x133 / me=umh / subme=7 / psy=1 / psy_rd=1.00:0.10 / mixed_ref=1 / me_range=16 / chroma_me=1 / trellis=2 / 8x8dct=1 / cqm=0 / deadzone=21,11 / fast_pskip=0 / chroma_qp_offset=-3 / threads=12 / lookahead_threads=2 / sliced_threads=0 / nr=0 / decimate=1 / interlaced=0 / bluray_compat=0 / constrained_intra=0 / bframes=9 / b_pyramid=2 / b_adapt=2 / b_bias=0 / direct=3 / weightb=1 / open_gop=0 / weightp=2 / keyint=250 / keyint_min=25 / scenecut=40 / intra_refresh=0 / rc_lookahead=50 / rc=2pass / mbtree=1 / bitrate=4500 / ratetol=1.0 / qcomp=0.60 / qpmin=0 / qpmax=69 / qpstep=4 / cplxblur=20.0 / qblur=0.5 / ip_ratio=1.40 / aq=1:1.00
Default : Да
Forced : Нет

Аудио
Идентификатор : 2
Формат : MPEG Audio
Версия формата : Version 1
Профиль формата : Layer 2
Идентификатор кодека : A_MPEG/L2
Идентификатор кодека/Подсказка : MP2
Продолжительность : 1 ч. 19 м.
Вид битрейта : Постоянный
Битрейт : 192 Кбит/сек
Каналы : 2 канала
Частота : 48,0 КГц
Метод сжатия : С потерями
Размер потока : 109 Мбайт (4%)
Default : Да
Forced : Нет


Скачать .torrent 2.61 ГБ


Download
Для скачивания .torrent файлов необходима регистрация
Сайт не распространяет и не хранит электронные версии произведений, а лишь предоставляет доступ к создаваемому пользователями каталогу ссылок на торрент-файлы, которые содержат только списки хеш-сумм

Страница 1 из 1

Ответить на тему

   Похожие торренты   Торрент 




cron